Главная » OST » OST — Фантастические твари: Преступления Грин-де-Вальда / Fantastic Beasts: The Crimes of Grindelwald (2018) FLAC

OST — Фантастические твари: Преступления Грин-де-Вальда / Fantastic Beasts: The Crimes of Grindelwald (2018) FLAC

СКАЧАТЬ TORRENT ФАЙЛ

Название: Фантастические твари: Преступления Грин-де-Вальда / Fantastic Beasts: The Crimes of Grindelwald
Исполнитель: James Newton Howard
Год: 2018
Жанр: Score
Страна: США

Продолжительность: 01:17:28
Формат/Кодек: FLAC
Битрейт аудио: lossless

Треклист:01. The Thestral Chase (8:05)
02. Newt and Leta (2:32)
03. Dumbledore (2:11)
04. The Kelpie (1:33)
05. Newt and Jacob Pack for Paris (2:28)
06. Nagini (4:16)
07. Newt Tracks Tina (2:28)
08. Queenie Searches for Jacob (1:35)
09. Irma and the Obscurus (2:56)
10. Blood Pact (2:29)
11. Capturing the Zouwu (1:33)
12. Traveling to Hogwarts (1:06)
13. Leta's Flashback (4:40)
14. Salamander Eyes (2:39)
15. Matagots (2:15)
16. Your Story Is Our Story (3:22)
17. Leta's Confession (5:14)
18. Vision of War (3:50)
19. Spread the Word (4:01)
20. Wands Into the Earth (4:05)
21. Restoring Your Name (6:20)
22. Fantastic Beasts: The Crimes of Grindelwald (2:41)
23. Dumbledore's Theme (Solo Piano) (1:28)
24. Fantastic Beasts Theme (Solo Piano) (1:37)
25. Leta's Theme (Solo Piano) (2:04)Лог создания рипа:Exact Audio Copy V1.3 from 2. September 2016

EAC extraction logfile from 14. November 2018, 15:09

James Newton Howard / Fantastic Beasts: The Crimes of Grinelwald

Used drive : PLEXTOR CD-R PX-230A Adapter: 1 ID: 1

Read mode : Secure
Utilize accurate stream : Yes
Defeat audio cache : Yes
Make use of C2 pointers : No

Read offset correction : 738
Overread into Lead-In and Lead-Out : No
Fill up missing offset samples with silence : Yes
Delete leading and trailing silent blocks : No
Null samples used in CRC calculations : Yes
Used interface : Native Win32 interface for Win NT & 2000
Gap handling : Appended to previous track

Used output format : User Defined Encoder
Selected bitrate : 1024 kBit/s
Quality : High
Add ID3 tag : No
Command line compressor : C:Program FilesExact Audio CopyFlacflac.exe
Additional command line options : -6 -V -T «ARTIST=%artist%» -T «TITLE=%title%» -T «ALBUM=%albumtitle%» -T «DATE=%year%» -T «TRACKNUMBER=%tracknr%» -T «GENRE=%genre%» -T «COMMENT=%comment%» -T «ALBUMARTIST=%albuminterpret%» -T «COMPOSER=%composer%» -T «DISCNUMBER=%cdnumber%» -T «TOTALDISCS=%totalcds%» -T «TOTALTRACKS=%numtracks%» %source% -o %dest%

TOC of the extracted CD

Track | Start | Length | Start sector | End sector
———————————————————
1 | 0:00.00 | 8:04.56 | 0 | 36355
2 | 8:04.56 | 2:32.08 | 36356 | 47763
3 | 10:36.64 | 2:11.18 | 47764 | 57606
4 | 12:48.07 | 1:32.42 | 57607 | 64548
5 | 14:20.49 | 2:27.62 | 64549 | 75635
6 | 16:48.36 | 4:15.72 | 75636 | 94832
7 | 21:04.33 | 2:27.68 | 94833 | 105925
8 | 23:32.26 | 1:35.21 | 105926 | 113071
9 | 25:07.47 | 2:56.28 | 113072 | 126299
10 | 28:04.00 | 2:29.15 | 126300 | 137489
11 | 30:33.15 | 1:33.05 | 137490 | 144469
12 | 32:06.20 | 1:06.14 | 144470 | 149433
13 | 33:12.34 | 4:40.15 | 149434 | 170448
14 | 37:52.49 | 2:38.58 | 170449 | 182356
15 | 40:31.32 | 2:15.16 | 182357 | 192497
16 | 42:46.48 | 3:21.71 | 192498 | 207643
17 | 46:08.44 | 5:14.07 | 207644 | 231200
18 | 51:22.51 | 3:49.74 | 231201 | 248449
19 | 55:12.50 | 4:01.29 | 248450 | 266553
20 | 59:14.04 | 4:04.62 | 266554 | 284915
21 | 63:18.66 | 6:20.01 | 284916 | 313416
22 | 69:38.67 | 2:40.40 | 313417 | 325456
23 | 72:19.32 | 1:27.47 | 325457 | 332028
24 | 73:47.04 | 1:37.15 | 332029 | 339318
25 | 75:24.19 | 2:04.30 | 339319 | 348648

Track 1

Filename C:Ripped by Filex1 — The Thestral Chase.wav

Pre-gap length 0:00:02.00

Peak level 100.0 %
Extraction speed 5.8 X
Track quality 100.0 %
Test CRC 0A304C4E
Copy CRC 0A304C4E
Track not present in AccurateRip database
Copy OK

Track 2

Filename C:Ripped by Filex2 — Newt and Leta.wav

Peak level 46.4 %
Extraction speed 5.3 X
Track quality 100.0 %
Test CRC AC4E393A
Copy CRC AC4E393A
Track not present in AccurateRip database
Copy OK

Track 3

Filename C:Ripped by Filex3 — Dumbledore.wav

Peak level 99.0 %
Extraction speed 5.1 X
Track quality 100.0 %
Test CRC C437AE57
Copy CRC C437AE57
Track not present in AccurateRip database
Copy OK

Track 4

Filename C:Ripped by Filex4 — The Kelpie.wav

Peak level 99.4 %
Extraction speed 4.7 X
Track quality 100.0 %
Test CRC D698FEE8
Copy CRC D698FEE8
Track not present in AccurateRip database
Copy OK

Track 5

Filename C:Ripped by Filex5 — Newt and Jacob Pack for Paris.wav

Peak level 82.6 %
Extraction speed 5.2 X
Track quality 100.0 %
Test CRC FCE4FF2D
Copy CRC FCE4FF2D
Track not present in AccurateRip database
Copy OK

Track 6

Filename C:Ripped by Filex6 — Nagini.wav

Peak level 99.1 %
Extraction speed 5.1 X
Track quality 99.9 %
Test CRC 95305019
Copy CRC 95305019
Track not present in AccurateRip database
Copy OK

Track 7

Filename C:Ripped by Filex7 — Newt Tracks Tina.wav

Peak level 97.0 %
Extraction speed 5.2 X
Track quality 100.0 %
Test CRC 36072140
Copy CRC 36072140
Track not present in AccurateRip database
Copy OK

Track 8

Filename C:Ripped by Filex8 — Queenie Searches for Jacob.wav

Peak level 98.9 %
Extraction speed 3.9 X
Track quality 99.8 %
Test CRC A6B00E52
Copy CRC A6B00E52
Track not present in AccurateRip database
Copy OK

Track 9

Filename C:Ripped by Filex9 — Irma and the Obscurus.wav

Peak level 100.0 %
Extraction speed 5.3 X
Track quality 100.0 %
Test CRC DED2C7C3
Copy CRC DED2C7C3
Track not present in AccurateRip database
Copy OK

Track 10

Filename C:Ripped by Filex10 — Blood Pact.wav

Peak level 35.3 %
Extraction speed 5.2 X
Track quality 100.0 %
Test CRC 892C24C9
Copy CRC 892C24C9
Track not present in AccurateRip database
Copy OK

Track 11

Filename C:Ripped by Filex11 — Capturing the Zouwu.wav

Peak level 99.6 %
Extraction speed 4.7 X
Track quality 100.0 %
Test CRC 690F1178
Copy CRC 690F1178
Track not present in AccurateRip database
Copy OK

Track 12

Filename C:Ripped by Filex12 — Traveling to Hogwarts.wav

Peak level 93.2 %
Extraction speed 4.3 X
Track quality 100.0 %
Test CRC 651B82E6
Copy CRC 651B82E6
Track not present in AccurateRip database
Copy OK

Track 13

Filename C:Ripped by Filex13 — Leta's Flashback.wav

Peak level 88.0 %
Extraction speed 5.2 X
Track quality 99.9 %
Test CRC D1741C73
Copy CRC D1741C73
Track not present in AccurateRip database
Copy OK

Track 14

Filename C:Ripped by Filex14 — Salamander Eyes.wav

Peak level 71.1 %
Extraction speed 5.2 X
Track quality 100.0 %
Test CRC 4883CDB8
Copy CRC 4883CDB8
Track not present in AccurateRip database
Copy OK

Track 15

Filename C:Ripped by Filex15 — Matagots.wav

Peak level 100.0 %
Extraction speed 5.0 X
Track quality 100.0 %
Test CRC 15F6EEB7
Copy CRC 15F6EEB7
Track not present in AccurateRip database
Copy OK

Track 16

Filename C:Ripped by Filex16 — Your Story Is Our Story.wav

Peak level 43.2 %
Extraction speed 5.4 X
Track quality 100.0 %
Test CRC 79B95AAB
Copy CRC 79B95AAB
Track not present in AccurateRip database
Copy OK

Track 17

Filename C:Ripped by Filex17 — Leta's Confession.wav

Peak level 72.8 %
Extraction speed 5.6 X
Track quality 100.0 %
Test CRC 9D5A0352
Copy CRC 9D5A0352
Track not present in AccurateRip database
Copy OK

Track 18

Filename C:Ripped by Filex18 — Vision of War.wav

Peak level 99.1 %
Extraction speed 5.5 X
Track quality 100.0 %
Test CRC A929BD05
Copy CRC A929BD05
Track not present in AccurateRip database
Copy OK

Track 19

Filename C:Ripped by Filex19 — Spread the Word.wav

Peak level 99.3 %
Extraction speed 5.4 X
Track quality 100.0 %
Test CRC E2092AC7
Copy CRC E2092AC7
Track not present in AccurateRip database
Copy OK

Track 20

Filename C:Ripped by Filex20 — Wands Into the Earth.wav

Peak level 99.5 %
Extraction speed 5.5 X
Track quality 100.0 %
Test CRC AA2D76EB
Copy CRC AA2D76EB
Track not present in AccurateRip database
Copy OK

Track 21

Filename C:Ripped by Filex21 — Restoring Your Name.wav

Peak level 100.0 %
Extraction speed 5.7 X
Track quality 100.0 %
Test CRC 84C904EB
Copy CRC 84C904EB
Track not present in AccurateRip database
Copy OK

Track 22

Filename C:Ripped by Filex22 — Fantastic Beasts- The Crimes of Grindelwald.wav

Peak level 99.0 %
Extraction speed 5.1 X
Track quality 100.0 %
Test CRC 6C0DE088
Copy CRC 6C0DE088
Track not present in AccurateRip database
Copy OK

Track 23

Filename C:Ripped by Filex23 — Dumbledore's Theme (Solo Piano).wav

Peak level 63.4 %
Extraction speed 3.7 X
Track quality 99.8 %
Test CRC 7015296F
Copy CRC 7015296F
Track not present in AccurateRip database
Copy OK

Track 24

Filename C:Ripped by Filex24 — Fantastic Beasts Theme (Solo Piano).wav

Peak level 58.2 %
Extraction speed 3.3 X
Track quality 100.0 %
Test CRC 66694F57
Copy CRC 66694F57
Track not present in AccurateRip database
Copy OK

Track 25

Filename C:Ripped by Filex25 — Leta's Theme (Solo Piano).wav

Peak level 75.8 %
Extraction speed 4.5 X
Track quality 100.0 %
Test CRC E0CA3E02
Copy CRC E0CA3E02
Track not present in AccurateRip database
Copy OK

None of the tracks are present in the AccurateRip database

No errors occurred

End of status report

—- CUETools DB Plugin V2.1.6

[CTDB TOCID: cYrQOAcJ83__JYW1Dc8uXaSILNE-] found
Submit result: cYrQOAcJ83__JYW1Dc8uXaSILNE- has been confirmed
Track | CTDB Status
1 | (6/6) Accurately ripped
2 | (6/6) Accurately ripped
3 | (6/6) Accurately ripped
4 | (6/6) Accurately ripped
5 | (6/6) Accurately ripped
6 | (6/6) Accurately ripped
7 | (6/6) Accurately ripped
8 | (6/6) Accurately ripped
9 | (6/6) Accurately ripped
10 | (6/6) Accurately ripped
11 | (6/6) Accurately ripped
12 | (6/6) Accurately ripped
13 | (6/6) Accurately ripped
14 | (6/6) Accurately ripped
15 | (6/6) Accurately ripped
16 | (6/6) Accurately ripped
17 | (6/6) Accurately ripped
18 | (6/6) Accurately ripped
19 | (6/6) Accurately ripped
20 | (6/6) Accurately ripped
21 | (6/6) Accurately ripped
22 | (6/6) Accurately ripped
23 | (6/6) Accurately ripped
24 | (6/6) Accurately ripped
25 | (6/6) Accurately ripped

==== Log checksum 00A27D05BF6E1E8E612C6696438D1B09CA733E99E81CBD0908ED6A2909F781CB ====
LOG (.CUE):REM GENRE Soundtrack
REM DATE 2018
REM DISCID 74122819
REM COMMENT «ExactAudioCopy v1.3»
PERFORMER «James Newton Howard»
TITLE «Fantastic Beasts: The Crimes of Grindelwald»
REM COMPOSER «James Newton Howard»
FILE «01 — The Thestral Chase.wav» WAVE
TRACK 01 AUDIO
TITLE «The Thestral Chase»
PERFORMER «James Newton Howard»
REM COMPOSER «James Newton Howard»
INDEX 01 00:00:00
FILE «02 — Newt and Leta.wav» WAVE
TRACK 02 AUDIO
TITLE «Newt and Leta»
PERFORMER «James Newton Howard»
REM COMPOSER «James Newton Howard»
INDEX 01 00:00:00
FILE «03 — Dumbledore.wav» WAVE
TRACK 03 AUDIO
TITLE «Dumbledore»
PERFORMER «James Newton Howard»
REM COMPOSER «James Newton Howard»
INDEX 01 00:00:00
FILE «04 — The Kelpie.wav» WAVE
TRACK 04 AUDIO
TITLE «The Kelpie»
PERFORMER «James Newton Howard»
REM COMPOSER «James Newton Howard»
INDEX 01 00:00:00
FILE «05 — Newt and Jacob Pack for Paris.wav» WAVE
TRACK 05 AUDIO
TITLE «Newt and Jacob Pack for Paris»
PERFORMER «James Newton Howard»
REM COMPOSER «James Newton Howard»
INDEX 01 00:00:00
FILE «06 — Nagini.wav» WAVE
TRACK 06 AUDIO
TITLE «Nagini»
PERFORMER «James Newton Howard»
REM COMPOSER «James Newton Howard»
INDEX 01 00:00:00
FILE «07 — Newt Tracks Tina.wav» WAVE
TRACK 07 AUDIO
TITLE «Newt Tracks Tina»
PERFORMER «James Newton Howard»
REM COMPOSER «James Newton Howard»
INDEX 01 00:00:00
FILE «08 — Queenie Searches for Jacob.wav» WAVE
TRACK 08 AUDIO
TITLE «Queenie Searches for Jacob»
PERFORMER «James Newton Howard»
REM COMPOSER «James Newton Howard»
INDEX 01 00:00:00
FILE «09 — Irma and the Obscurus.wav» WAVE
TRACK 09 AUDIO
TITLE «Irma and the Obscurus»
PERFORMER «James Newton Howard»
REM COMPOSER «James Newton Howard»
INDEX 01 00:00:00
FILE «10 — Blood Pact.wav» WAVE
TRACK 10 AUDIO
TITLE «Blood Pact»
PERFORMER «James Newton Howard»
REM COMPOSER «James Newton Howard»
INDEX 01 00:00:00
FILE «11 — Capturing the Zouwu.wav» WAVE
TRACK 11 AUDIO
TITLE «Capturing the Zouwu»
PERFORMER «James Newton Howard»
REM COMPOSER «James Newton Howard»
INDEX 01 00:00:00
FILE «12 — Traveling to Hogwarts.wav» WAVE
TRACK 12 AUDIO
TITLE «Traveling to Hogwarts»
PERFORMER «James Newton Howard»
REM COMPOSER «James Newton Howard»
INDEX 01 00:00:00
FILE «13 — Leta's Flashback.wav» WAVE
TRACK 13 AUDIO
TITLE «Leta's Flashback»
PERFORMER «James Newton Howard»
REM COMPOSER «James Newton Howard»
INDEX 01 00:00:00
FILE «14 — Salamander Eyes.wav» WAVE
TRACK 14 AUDIO
TITLE «Salamander Eyes»
PERFORMER «James Newton Howard»
REM COMPOSER «James Newton Howard»
INDEX 01 00:00:00
FILE «15 — Matagots.wav» WAVE
TRACK 15 AUDIO
TITLE «Matagots»
PERFORMER «James Newton Howard»
REM COMPOSER «James Newton Howard»
INDEX 01 00:00:00
FILE «16 — Your Story Is Our Story.wav» WAVE
TRACK 16 AUDIO
TITLE «Your Story Is Our Story»
PERFORMER «James Newton Howard»
REM COMPOSER «James Newton Howard»
INDEX 01 00:00:00
FILE «17 — Leta's Confession.wav» WAVE
TRACK 17 AUDIO
TITLE «Leta's Confession»
PERFORMER «James Newton Howard»
REM COMPOSER «James Newton Howard»
INDEX 01 00:00:00
FILE «18 — Vision of War.wav» WAVE
TRACK 18 AUDIO
TITLE «Vision of War»
PERFORMER «James Newton Howard»
REM COMPOSER «James Newton Howard»
INDEX 01 00:00:00
FILE «19 — Spread the Word.wav» WAVE
TRACK 19 AUDIO
TITLE «Spread the Word»
PERFORMER «James Newton Howard»
REM COMPOSER «James Newton Howard»
INDEX 01 00:00:00
FILE «20 — Wands Into the Earth.wav» WAVE
TRACK 20 AUDIO
TITLE «Wands Into the Earth»
PERFORMER «James Newton Howard»
REM COMPOSER «James Newton Howard»
INDEX 01 00:00:00
FILE «21 — Restoring Your Name.wav» WAVE
TRACK 21 AUDIO
TITLE «Restoring Your Name»
PERFORMER «James Newton Howard»
REM COMPOSER «James Newton Howard»
INDEX 01 00:00:00
FILE «22 — Fantastic Beasts — The Crimes of Grindelwald.wav» WAVE
TRACK 22 AUDIO
TITLE «Fantastic Beasts: The Crimes of Grindelwald»
PERFORMER «James Newton Howard»
REM COMPOSER «James Newton Howard»
INDEX 01 00:00:00
FILE «23 — Dumbledore's Theme (Solo Piano).wav» WAVE
TRACK 23 AUDIO
TITLE «Dumbledore's Theme (Solo Piano)»
PERFORMER «James Newton Howard»
REM COMPOSER «James Newton Howard»
INDEX 01 00:00:00
FILE «24 — Fantastic Beasts Theme (Solo Piano).wav» WAVE
TRACK 24 AUDIO
TITLE «Fantastic Beasts Theme (Solo Piano)»
PERFORMER «James Newton Howard»
REM COMPOSER «James Newton Howard»
INDEX 01 00:00:00
FILE «25 — Leta's Theme (Solo Piano).wav» WAVE
TRACK 25 AUDIO
TITLE «Leta's Theme (Solo Piano)»
PERFORMER «James Newton Howard»
REM COMPOSER «James Newton Howard»
INDEX 01 00:00:00

x

Не пропустите

OST — Фантастические твари: Преступления Грин-де-Вальда / Fantastic Beasts: The Crimes of Grindelwald (2018) MP3

СКАЧАТЬ TORRENT ФАЙЛ Название: Фантастические твари: Преступления Грин-де-Вальда / Fantastic Beasts: The Crimes of Grindelwald ...