Главная » OST » OST — Богемская рапсодия / Bohemian Rhapsody [by Queen] (2018) FLAC

OST — Богемская рапсодия / Bohemian Rhapsody [by Queen] (2018) FLAC

СКАЧАТЬ TORRENT ФАЙЛ

Название: Богемская рапсодия / Bohemian Rhapsody (by Queen)
Исполнитель: Queen
Год: 2018
Жанр: Soundtrack
Страна: США
Издатель-лейбл: Hollywood Records

Продолжительность: 01:19:54
Формат/Кодек: FLAC
Битрейт аудио: lossless

Разрядность: 24/96
Источник: HDtracks

Треклист:01. 20Th Century Fox Fanfare (0:25)
02. Somebody To Love (2011 Remaster) (4:56)
03. Doing All Right (…Revisited) (3:17)
04. Keep Yourself Alive (Live At The Rainbow) (3:56)
05. Killer Queen (2011 Remaster) (2:59)
06. Fat Bottomed Girls (Live In Paris) (4:38)
07. Bohemian Rhapsody (2011 Remaster) (5:55)
08. Now I'm Here (Live At The Hammersmith Odeon) (4:26)
09. Crazy Little Thing Called Love (2011 Remaster) (2:43)
10. Love Of My Life (Live At Rock In Rio Festival) (4:29)
11. We Will Rock You (Movie Mix) (2:09)
12. Another One Bites The Dust (2011 Remaster) (3:35)
13. I Want To Break Free (3:43)
14. Under Pressure (Remastered) (4:04)
15. Who Wants To Live Forever (2011 Remaster) (5:14)
16. Bohemian Rhapsody (Live Aid) (2:28)
17. Radio Ga Ga (Live Aid) (4:06)
18. Ay-Oh (Live Aid) (0:41)
19. Hammer To Fall (Live Aid) (4:04)
20. We Are The Champions (Live Aid) (3:57)
21. Don't Stop Me Now (…Revisited) (3:38)
22. The Show Must Go On (2011 Remaster) (4:32)Лог проверки качества:foobar2000 1.4 / Замер динамического диапазона (DR) 1.1.1
Дата отчёта: 2018-10-25 01:19:46

———————————————————————————
Анализ: Queen / Bohemian Rhapsody (The Original Soundtrack)
———————————————————————————

DR Пики RMS Продолжительность трека
———————————————————————————
DR4 -0.09 дБ -8.72 дБ 0:25 01-20Th Century Fox Fanfare
DR8 -0.11 дБ -10.70 дБ 4:56 02-Somebody To Love (2011 Remaster)
DR9 -0.10 дБ -11.37 дБ 3:17 03-Doing All Right (…Revisited)
DR7 0.00 дБ -8.39 дБ 3:56 04-Keep Yourself Alive (Live At The Rainbow)
DR7 -0.57 дБ -9.99 дБ 2:59 05-Killer Queen (2011 Remaster)
DR8 0.00 дБ -9.41 дБ 4:38 06-Fat Bottomed Girls (Live In Paris)
DR8 -0.09 дБ -12.50 дБ 5:55 07-Bohemian Rhapsody (2011 Remaster)
DR8 -0.10 дБ -10.04 дБ 4:26 08-Now I'm Here (Live At The Hammersmith Odeon)
DR7 -0.10 дБ -9.20 дБ 2:43 09-Crazy Little Thing Called Love (2011 Remaster)
DR11 -0.10 дБ -14.79 дБ 4:29 10-Love Of My Life (Live At Rock In Rio Festival)
DR6 0.00 дБ -8.77 дБ 2:09 11-We Will Rock You (Movie Mix)
DR8 0.00 дБ -10.29 дБ 3:35 12-Another One Bites The Dust (2011 Remaster)
DR8 -0.10 дБ -10.51 дБ 3:43 13-I Want To Break Free
DR7 -0.03 дБ -10.75 дБ 4:04 14-Under Pressure (Remastered)
DR7 -0.10 дБ -11.65 дБ 5:14 15-Who Wants To Live Forever (2011 Remaster)
DR9 -0.10 дБ -10.28 дБ 2:28 16-Bohemian Rhapsody (Live Aid)
DR9 -0.10 дБ -10.10 дБ 4:06 17-Radio Ga Ga (Live Aid)
DR11 -0.10 дБ -12.30 дБ 0:41 18-Ay-Oh (Live Aid)
DR9 -0.10 дБ -9.99 дБ 4:04 19-Hammer To Fall (Live Aid)
DR8 -0.10 дБ -9.10 дБ 3:57 20-We Are The Champions (Live Aid)
DR8 -0.10 дБ -10.24 дБ 3:38 21-Don't Stop Me Now (…Revisited)
DR7 0.00 дБ -10.18 дБ 4:32 22-The Show Must Go On (2011 Remaster)
———————————————————————————

Количество треков: 22
Реальные значения DR: DR8

Частота: 96000 Гц
Каналов: 2
Разрядность: 24
Битрейт: 2869 кбит/с
Кодек: FLAC
================================================================================

x

Не пропустите

Авторы Star Wars Jedi: Fallen Order рассказали, почему выбрали Unreal Engine 4

Star Wars Jedi: Fallen Order очень необычная игра в портфолио ЕА, даже по части используемых ...