Главная » Pop » A-Studio — 30-лет. Концерт на «Новой волне» (2018) HDTVRip-HEVC 1080i

A-Studio — 30-лет. Концерт на «Новой волне» (2018) HDTVRip-HEVC 1080i

СКАЧАТЬ TORRENT ФАЙЛ

Исполнитель: A-Studio
Жанр: POP
Год выпуска: 2018
Продолжительность: 01:10:59

Отдельная благодарность пользователю kuzmichm2196 за исходник.

Формат: MKV
Качество: HDTVRip 1080i HEVC
Видео кодек: H.265
Аудио кодек: AAC
Видео: HEVC/H.265, 1920×1080, ~7 000 Kbps, 25fps
Аудио: AAC, 2 ch, 192 Kbps, 48000Hz

Треклист:1.Кети Топурия и A’STUDIO — Помни это (живьём)
2.Филипп Киркоров — Ночь-подруга (живьём)
3.Леонид Агутин и Tomas N’Evergreen — Джулия (живьём)
4.Алсу — Любовь-река (фонограмма)
5.Сергей Лазарев — Ещё люблю (живьём)
6.Alekseev — Сезон дождей (живьём)
7.Тимур Родригез — S.O.S. (живьём)
8.The Jigits — Нелюбимая, Солдат любви (живьём)
9.Юлианна Караулова — Стоп, ночь (живьём)
10.Димаш Кудайбергенов — Грешная страсть (живьём)
11.Виктория Жук, Антон Беляев и группа Therr Maitz — Улетаю (живьём)
12.Кети Топурия и A’STUDIO — Fashion girl (живьём)
13.A’STUDIO, Кети Топурия и все звёзды — Белая река (живьём)MedaInfoComplete name : D:A’STUDIO_2018.09.10.mkv
Format : Matroska
Format version : Version 4 / Version 2
File size : 3.64 GiB
Duration : 1 h 10 min
Overall bit rate : 7 351 kb/s
Encoded date : UTC 2018-09-12 03:21:00
Writing application : mkvmerge v8.3.0 ('Over the Horizon') 64bit
Writing library : libebml v1.3.1 + libmatroska v1.4.2

Video
ID : 1
Format : HEVC
Format/Info : High Efficiency Video Coding
Format profile : Main@L4.1@Main
Codec ID : V_MPEGH/ISO/HEVC
Duration : 1 h 10 min
Bit rate : 7 159 kb/s
Width : 1 920 pixels
Height : 1 080 pixels
Display aspect ratio : 16:9
Frame rate mode : Constant
Frame rate : 25.000 FPS
Color space : YUV
Chroma subsampling : 4:2:0
Bit depth : 8 bits
Bits/(Pixel*Frame) : 0.138
Stream size : 3.55 GiB (97%)
Language : English
Default : Yes
Forced : No
Color range : Full
Color primaries : BT.709
Transfer characteristics : BT.709
Matrix coefficients : BT.709

Audio
ID : 2
Format : AAC
Format/Info : Advanced Audio Codec
Format profile : LC
Codec ID : A_AAC
Duration : 1 h 10 min
Bit rate : 192 kb/s
Channel(s) : 2 channels
Channel positions : Front: L R
Sampling rate : 48.0 kHz
Frame rate : 46.875 FPS (1024 spf)
Compression mode : Lossy
Stream size : 96.2 MiB (3%)
Language : English
Default : Yes
Forced : NoСкриншоты

x

Не пропустите

Династия / Dynasty [02×01-06 из 22] (2018) WEBRip | ColdFilm

СКАЧАТЬ TORRENT ФАЙЛ Информация о фильме Название: Династия Оригинальное название: Dynasty Год выпуска: 2018 Жанр: ...